Romxhacking Romxhacking
- Nasío pa'jakear -
 
 F.A.Q.F.A.Q.   BuscarBuscar   Lista de MiembrosLista de Miembros   Grupos de UsuariosGrupos de Usuarios   RegístreseRegístrese 
 PerfilPerfil   Identifíquese para revisar sus mensajesIdentifíquese para revisar sus mensajes   ConectarseConectarse 


Menú principal
Portal
Foros
F.A.Q.
Buscar
Lista de miembros
Grupos de usuarios
Perfil

Usuario
Nombre de Usuario:

Contraseña:

 Recordarme



He olvidado mi contraseña

¿Aún no tiene su cuenta?
Puede registrarse Aquí, es GRATIS.


Anuncio del administrador
No pretendemos solucionar todos los problemas ni ser referencia de nada, simplemente nos reunimos aquí para charlar de nuestras cosas.
NO SE RESPONDERÁ A NADA POR PRIVADO, QUE EL FORO ESTÁ PARA ALGO

Imagenes Bin de PSX sin Cue y con multitrack separado

 
Publicar Nuevo Tema   Responder al Tema    Romxhacking -> Dudas y Preguntas
Ver tema anterior :: Ver siguiente tema  
Autor Mensaje
Manic_69



Sexo: Sexo:Hombre
Registrado: 07 Nov 2012
Edad: 25
Mensajes: 49
Estado: Offline
MensajePublicado: Tue Sep 22, 2015 3:07 pm    Título del mensaje: Imagenes Bin de PSX sin Cue y con multitrack separado Responder citando

Buenas, mi duda reside en un par de imagenes de juegos de psx que al querer convertirlos para usarlos en psp me di cuenta que traen la imagen bin sin el cue y los track de musica separados y no sé muy bien como unirlos para poder usarlos.
Me refiero en concreto a ShadowMan que solo trae una pista extra y a Dead or Alive que trae varias que imagino, serán las pistas de música usadas durante los combates.
Gracias por adelantado.
Volver arriba
Ver perfil del usuario Enviar mensaje privado  
CUE
Administrador
Administrador


Sexo: Sexo:Hombre
Registrado: 24 Jan 2011
Mensajes: 5433
Estado: Offline
MensajePublicado: Tue Sep 22, 2015 4:15 pm    Título del mensaje: Responder citando

Bufff, yo siempre he pasado de esas imágenes. Si no tienes el CUE te falta información de cómo van las pistas, su duración, su formato, etc, a no ser que sean formatos de los iniciales, que tienen esa información en el directorio del juego, o que estén en formato WAV/MP3. Además siempre encontraba problemas para grabar esos juegos.
Volver arriba
Ver perfil del usuario Enviar mensaje privado  
Manic_69



Sexo: Sexo:Hombre
Registrado: 07 Nov 2012
Edad: 25
Mensajes: 49
Estado: Offline
MensajePublicado: Tue Sep 22, 2015 9:21 pm    Título del mensaje: Responder citando

Entiendo, viendo algo más por ahí al parecer hay que hacer archivos txt con la info y tal o descargarse una lista de cues.
En Emuparadise tienen una gran lista de juegos antiguos y tal pero entre que vienen comprimidos en ecm y las pistas vienen sueltas me hago un lio increible Crying or Very sad
Volver arriba
Ver perfil del usuario Enviar mensaje privado  
gadesx
Administrador
Administrador


Sexo: Sexo:Hombre
Registrado: 24 Jan 2011
Edad: 28
Mensajes: 1976
Ubicación: El puche
Estado: Offline
MensajePublicado: Wed Sep 23, 2015 10:11 am    Título del mensaje: Responder citando

Los juegos en ecm hay que descomprimirlos con el unecm

Te pongo aquí lo que viene en el CUE del shadow man de redump.
Esto lo copias en un txt, lo guardas como .cue y ya lo tienes.
Aunque ya ves como espera las pistas, en bin

Del Shadow Man
Código:

FILE "Shadow Man (Europe) (En,Fr,Es) (Track 1).bin" BINARY
  TRACK 01 MODE2/2352
    INDEX 01 00:00:00
FILE "Shadow Man (Europe) (En,Fr,Es) (Track 2).bin" BINARY
  TRACK 02 AUDIO
    INDEX 00 00:00:00
    INDEX 01 00:02:00


Del Dead or Alive
Código:

FILE "Dead or Alive (Europe) (Track 01).bin" BINARY
  TRACK 01 MODE2/2352
    INDEX 01 00:00:00
FILE "Dead or Alive (Europe) (Track 02).bin" BINARY
  TRACK 02 AUDIO
    INDEX 00 00:00:00
    INDEX 01 00:02:00
FILE "Dead or Alive (Europe) (Track 03).bin" BINARY
  TRACK 03 AUDIO
    INDEX 00 00:00:00
    INDEX 01 00:02:00
FILE "Dead or Alive (Europe) (Track 04).bin" BINARY
  TRACK 04 AUDIO
    INDEX 00 00:00:00
    INDEX 01 00:02:00
FILE "Dead or Alive (Europe) (Track 05).bin" BINARY
  TRACK 05 AUDIO
    INDEX 00 00:00:00
    INDEX 01 00:02:00
FILE "Dead or Alive (Europe) (Track 06).bin" BINARY
  TRACK 06 AUDIO
    INDEX 00 00:00:00
    INDEX 01 00:02:00
FILE "Dead or Alive (Europe) (Track 07).bin" BINARY
  TRACK 07 AUDIO
    INDEX 00 00:00:00
    INDEX 01 00:02:00
FILE "Dead or Alive (Europe) (Track 08).bin" BINARY
  TRACK 08 AUDIO
    INDEX 00 00:00:00
    INDEX 01 00:02:00
FILE "Dead or Alive (Europe) (Track 09).bin" BINARY
  TRACK 09 AUDIO
    INDEX 00 00:00:00
    INDEX 01 00:02:00
FILE "Dead or Alive (Europe) (Track 10).bin" BINARY
  TRACK 10 AUDIO
    INDEX 00 00:00:00
    INDEX 01 00:02:00
FILE "Dead or Alive (Europe) (Track 11).bin" BINARY
  TRACK 11 AUDIO
    INDEX 00 00:00:00
    INDEX 01 00:02:00
FILE "Dead or Alive (Europe) (Track 12).bin" BINARY
  TRACK 12 AUDIO
    INDEX 00 00:00:00
    INDEX 01 00:02:00
FILE "Dead or Alive (Europe) (Track 13).bin" BINARY
  TRACK 13 AUDIO
    INDEX 00 00:00:00
    INDEX 01 00:02:00
FILE "Dead or Alive (Europe) (Track 14).bin" BINARY
  TRACK 14 AUDIO
    INDEX 00 00:00:00
    INDEX 01 00:02:00
FILE "Dead or Alive (Europe) (Track 15).bin" BINARY
  TRACK 15 AUDIO
    INDEX 00 00:00:00
    INDEX 01 00:02:00
FILE "Dead or Alive (Europe) (Track 16).bin" BINARY
  TRACK 16 AUDIO
    INDEX 00 00:00:00
    INDEX 01 00:02:00
FILE "Dead or Alive (Europe) (Track 17).bin" BINARY
  TRACK 17 AUDIO
    INDEX 00 00:00:00
    INDEX 01 00:02:00
FILE "Dead or Alive (Europe) (Track 18).bin" BINARY
  TRACK 18 AUDIO
    INDEX 00 00:00:00
    INDEX 01 00:02:00
FILE "Dead or Alive (Europe) (Track 19).bin" BINARY
  TRACK 19 AUDIO
    INDEX 00 00:00:00
    INDEX 01 00:02:00
FILE "Dead or Alive (Europe) (Track 20).bin" BINARY
  TRACK 20 AUDIO
    INDEX 00 00:00:00
    INDEX 01 00:02:00
FILE "Dead or Alive (Europe) (Track 21).bin" BINARY
  TRACK 21 AUDIO
    INDEX 00 00:00:00
    INDEX 01 00:02:00
FILE "Dead or Alive (Europe) (Track 22).bin" BINARY
  TRACK 22 AUDIO
    INDEX 00 00:00:00
    INDEX 01 00:02:00
FILE "Dead or Alive (Europe) (Track 23).bin" BINARY
  TRACK 23 AUDIO
    INDEX 00 00:00:00
    INDEX 01 00:02:00
FILE "Dead or Alive (Europe) (Track 24).bin" BINARY
  TRACK 24 AUDIO
    INDEX 00 00:00:00
    INDEX 01 00:02:00
FILE "Dead or Alive (Europe) (Track 25).bin" BINARY
  TRACK 25 AUDIO
    INDEX 00 00:00:00
    INDEX 01 00:02:00
FILE "Dead or Alive (Europe) (Track 26).bin" BINARY
  TRACK 26 AUDIO
    INDEX 00 00:00:00
    INDEX 01 00:02:00
FILE "Dead or Alive (Europe) (Track 27).bin" BINARY
  TRACK 27 AUDIO
    INDEX 00 00:00:00
    INDEX 01 00:02:00
FILE "Dead or Alive (Europe) (Track 28).bin" BINARY
  TRACK 28 AUDIO
    INDEX 00 00:00:00
    INDEX 01 00:02:00
FILE "Dead or Alive (Europe) (Track 29).bin" BINARY
  TRACK 29 AUDIO
    INDEX 00 00:00:00
    INDEX 01 00:02:00

_________________
Mi blog y mi droga: http://gadesxscene.blogspot.com/
Volver arriba
Ver perfil del usuario Enviar mensaje privado [ Oculto ] Visitar sitio web del autor MSN Messenger
Manic_69



Sexo: Sexo:Hombre
Registrado: 07 Nov 2012
Edad: 25
Mensajes: 49
Estado: Offline
MensajePublicado: Wed Sep 23, 2015 11:14 am    Título del mensaje: Responder citando

Muchas gracias por la info de verdad, para descomprimirlos usé el PakkISO que trae varios compresores y descompresores, y para lo otro encontré un paquete de cues sueltos pero no venia la versión europea del Shadowman ni la del DOA, así que me es de gran ayuda esto.
Un saludo.
Volver arriba
Ver perfil del usuario Enviar mensaje privado  
CUE
Administrador
Administrador


Sexo: Sexo:Hombre
Registrado: 24 Jan 2011
Mensajes: 5433
Estado: Offline
MensajePublicado: Wed Sep 23, 2015 12:24 pm    Título del mensaje: Responder citando

Los cuesheets puedes bajarlos de redump.org, que tienen todos.
Volver arriba
Ver perfil del usuario Enviar mensaje privado  
Mostrar mensajes anteriores:   
Publicar Nuevo Tema   Responder al Tema    Romxhacking -> Dudas y Preguntas Todas las horas están en GMT + 1 Hora
Página 1 de 1

 
Saltar a:  
No puede crear mensajes
No puede responder temas
No puede editar sus mensajes
No puede borrar sus mensajes
No puede votar en encuestas

Temas Relacionados
 Temas   Respuestas   Autor   Lecturas   Último Mensaje 
No hay mensajes nuevos Sacar archivos ocultos en una iso de PSX 19 tchusami 7331 Tue Jul 07, 2015 5:28 pm
gledson999 Ver último mensaje
No hay mensajes nuevos Alguien tiene esta tablet? solo queda preguntar en foros xD 14 Davoker 4907 Thu Nov 07, 2013 12:20 pm
Davoker Ver último mensaje
No hay mensajes nuevos Como hacer una tabla hexadecimal 49 TDW 9741 Mon May 21, 2012 8:10 am
CUE Ver último mensaje
No hay mensajes nuevos Tirando al ensamblador ( AMS ) una ayudita :P 15 carloscass1994 4803 Sun Jan 15, 2012 6:15 pm
tchusami Ver último mensaje
No hay mensajes nuevos Salió una version nueva de PCSX2 despues de 2 años 8 gadesx 3384 Wed May 04, 2011 5:03 pm
CUE Ver último mensaje
 


Crear foro gratis - Powered by phpBB © 2001, 2005 phpBB Group
subRebel style by ktauber