Imagenes Bin de PSX sin Cue y con multitrack separado

Lugar donde se intentarán resolver problemas específicos
Responder
Avatar de Usuario
Manic_69
Mensajes: 49
Registrado: 07 Nov 2012, 17:18

Imagenes Bin de PSX sin Cue y con multitrack separado

Mensaje por Manic_69 » 22 Sep 2015, 16:07

Buenas, mi duda reside en un par de imagenes de juegos de psx que al querer convertirlos para usarlos en psp me di cuenta que traen la imagen bin sin el cue y los track de musica separados y no sé muy bien como unirlos para poder usarlos.
Me refiero en concreto a ShadowMan que solo trae una pista extra y a Dead or Alive que trae varias que imagino, serán las pistas de música usadas durante los combates.
Gracias por adelantado.

Avatar de Usuario
CUE
Administrador
Administrador
Mensajes: 5601
Registrado: 24 Ene 2011, 16:52

Mensaje por CUE » 22 Sep 2015, 17:15

Bufff, yo siempre he pasado de esas imágenes. Si no tienes el CUE te falta información de cómo van las pistas, su duración, su formato, etc, a no ser que sean formatos de los iniciales, que tienen esa información en el directorio del juego, o que estén en formato WAV/MP3. Además siempre encontraba problemas para grabar esos juegos.

Avatar de Usuario
Manic_69
Mensajes: 49
Registrado: 07 Nov 2012, 17:18

Mensaje por Manic_69 » 22 Sep 2015, 22:21

Entiendo, viendo algo más por ahí al parecer hay que hacer archivos txt con la info y tal o descargarse una lista de cues.
En Emuparadise tienen una gran lista de juegos antiguos y tal pero entre que vienen comprimidos en ecm y las pistas vienen sueltas me hago un lio increible :cry:

Avatar de Usuario
gadesx
Administrador
Administrador
Mensajes: 2006
Registrado: 24 Ene 2011, 16:43
Ubicación: El puche
Contactar:

Mensaje por gadesx » 23 Sep 2015, 11:11

Los juegos en ecm hay que descomprimirlos con el unecm

Te pongo aquí lo que viene en el CUE del shadow man de redump.
Esto lo copias en un txt, lo guardas como .cue y ya lo tienes.
Aunque ya ves como espera las pistas, en bin

Del Shadow Man

Código: Seleccionar todo

FILE "Shadow Man (Europe) (En,Fr,Es) (Track 1).bin" BINARY
  TRACK 01 MODE2/2352
    INDEX 01 00:00:00
FILE "Shadow Man (Europe) (En,Fr,Es) (Track 2).bin" BINARY
  TRACK 02 AUDIO
    INDEX 00 00:00:00
    INDEX 01 00:02:00
Del Dead or Alive

Código: Seleccionar todo

FILE "Dead or Alive (Europe) (Track 01).bin" BINARY
  TRACK 01 MODE2/2352
    INDEX 01 00:00:00
FILE "Dead or Alive (Europe) (Track 02).bin" BINARY
  TRACK 02 AUDIO
    INDEX 00 00:00:00
    INDEX 01 00:02:00
FILE "Dead or Alive (Europe) (Track 03).bin" BINARY
  TRACK 03 AUDIO
    INDEX 00 00:00:00
    INDEX 01 00:02:00
FILE "Dead or Alive (Europe) (Track 04).bin" BINARY
  TRACK 04 AUDIO
    INDEX 00 00:00:00
    INDEX 01 00:02:00
FILE "Dead or Alive (Europe) (Track 05).bin" BINARY
  TRACK 05 AUDIO
    INDEX 00 00:00:00
    INDEX 01 00:02:00
FILE "Dead or Alive (Europe) (Track 06).bin" BINARY
  TRACK 06 AUDIO
    INDEX 00 00:00:00
    INDEX 01 00:02:00
FILE "Dead or Alive (Europe) (Track 07).bin" BINARY
  TRACK 07 AUDIO
    INDEX 00 00:00:00
    INDEX 01 00:02:00
FILE "Dead or Alive (Europe) (Track 08).bin" BINARY
  TRACK 08 AUDIO
    INDEX 00 00:00:00
    INDEX 01 00:02:00
FILE "Dead or Alive (Europe) (Track 09).bin" BINARY
  TRACK 09 AUDIO
    INDEX 00 00:00:00
    INDEX 01 00:02:00
FILE "Dead or Alive (Europe) (Track 10).bin" BINARY
  TRACK 10 AUDIO
    INDEX 00 00:00:00
    INDEX 01 00:02:00
FILE "Dead or Alive (Europe) (Track 11).bin" BINARY
  TRACK 11 AUDIO
    INDEX 00 00:00:00
    INDEX 01 00:02:00
FILE "Dead or Alive (Europe) (Track 12).bin" BINARY
  TRACK 12 AUDIO
    INDEX 00 00:00:00
    INDEX 01 00:02:00
FILE "Dead or Alive (Europe) (Track 13).bin" BINARY
  TRACK 13 AUDIO
    INDEX 00 00:00:00
    INDEX 01 00:02:00
FILE "Dead or Alive (Europe) (Track 14).bin" BINARY
  TRACK 14 AUDIO
    INDEX 00 00:00:00
    INDEX 01 00:02:00
FILE "Dead or Alive (Europe) (Track 15).bin" BINARY
  TRACK 15 AUDIO
    INDEX 00 00:00:00
    INDEX 01 00:02:00
FILE "Dead or Alive (Europe) (Track 16).bin" BINARY
  TRACK 16 AUDIO
    INDEX 00 00:00:00
    INDEX 01 00:02:00
FILE "Dead or Alive (Europe) (Track 17).bin" BINARY
  TRACK 17 AUDIO
    INDEX 00 00:00:00
    INDEX 01 00:02:00
FILE "Dead or Alive (Europe) (Track 18).bin" BINARY
  TRACK 18 AUDIO
    INDEX 00 00:00:00
    INDEX 01 00:02:00
FILE "Dead or Alive (Europe) (Track 19).bin" BINARY
  TRACK 19 AUDIO
    INDEX 00 00:00:00
    INDEX 01 00:02:00
FILE "Dead or Alive (Europe) (Track 20).bin" BINARY
  TRACK 20 AUDIO
    INDEX 00 00:00:00
    INDEX 01 00:02:00
FILE "Dead or Alive (Europe) (Track 21).bin" BINARY
  TRACK 21 AUDIO
    INDEX 00 00:00:00
    INDEX 01 00:02:00
FILE "Dead or Alive (Europe) (Track 22).bin" BINARY
  TRACK 22 AUDIO
    INDEX 00 00:00:00
    INDEX 01 00:02:00
FILE "Dead or Alive (Europe) (Track 23).bin" BINARY
  TRACK 23 AUDIO
    INDEX 00 00:00:00
    INDEX 01 00:02:00
FILE "Dead or Alive (Europe) (Track 24).bin" BINARY
  TRACK 24 AUDIO
    INDEX 00 00:00:00
    INDEX 01 00:02:00
FILE "Dead or Alive (Europe) (Track 25).bin" BINARY
  TRACK 25 AUDIO
    INDEX 00 00:00:00
    INDEX 01 00:02:00
FILE "Dead or Alive (Europe) (Track 26).bin" BINARY
  TRACK 26 AUDIO
    INDEX 00 00:00:00
    INDEX 01 00:02:00
FILE "Dead or Alive (Europe) (Track 27).bin" BINARY
  TRACK 27 AUDIO
    INDEX 00 00:00:00
    INDEX 01 00:02:00
FILE "Dead or Alive (Europe) (Track 28).bin" BINARY
  TRACK 28 AUDIO
    INDEX 00 00:00:00
    INDEX 01 00:02:00
FILE "Dead or Alive (Europe) (Track 29).bin" BINARY
  TRACK 29 AUDIO
    INDEX 00 00:00:00
    INDEX 01 00:02:00

Avatar de Usuario
Manic_69
Mensajes: 49
Registrado: 07 Nov 2012, 17:18

Mensaje por Manic_69 » 23 Sep 2015, 12:14

Muchas gracias por la info de verdad, para descomprimirlos usé el PakkISO que trae varios compresores y descompresores, y para lo otro encontré un paquete de cues sueltos pero no venia la versión europea del Shadowman ni la del DOA, así que me es de gran ayuda esto.
Un saludo.

Avatar de Usuario
CUE
Administrador
Administrador
Mensajes: 5601
Registrado: 24 Ene 2011, 16:52

Mensaje por CUE » 23 Sep 2015, 13:24

Los cuesheets puedes bajarlos de redump.org, que tienen todos.

Responder